  0
SECTION
  2
HEADER
  9
$ACADVER
  1
AC1015
  9
$ACADMAINTVER
 70
    13
  9
$DWGCODEPAGE
  3
ANSI_949
  9
$INSBASE
 10
0.0
 20
0.0
 30
0.0
  9
$EXTMIN
 10
4591.371469132442
 20
3209.90818654474
 30
0.0
  9
$EXTMAX
 10
4708.351658178398
 20
3290.949619680858
 30
0.0
  9
$LIMMIN
 10
0.0
 20
0.0
  9
$LIMMAX
 10
10000.0
 20
10000.0
  9
$ORTHOMODE
 70
     1
  9
$REGENMODE
 70
     1
  9
$FILLMODE
 70
     1
  9
$QTEXTMODE
 70
     0
  9
$MIRRTEXT
 70
     1
  9
$LTSCALE
 40
8.0
  9
$ATTMODE
 70
     1
  9
$TEXTSIZE
 40
0.2
  9
$TRACEWID
 40
0.05
  9
$TEXTSTYLE
  7
궁서체
  9
$CLAYER
  8
AM_0
  9
$CELTYPE
  6
BYLAYER
  9
$CECOLOR
 62
   256
  9
$CELTSCALE
 40
1.0
  9
$DISPSILH
 70
     0
  9
$DIMSCALE
 40
0.85
  9
$DIMASZ
 40
2.0
  9
$DIMEXO
 40
1.0
  9
$DIMDLI
 40
6.0
  9
$DIMRND
 40
0.0
  9
$DIMDLE
 40
0.0
  9
$DIMEXE
 40
1.3
  9
$DIMTP
 40
0.3
  9
$DIMTM
 40
0.0
  9
$DIMTXT
 40
3.0
  9
$DIMCEN
 40
0.0
  9
$DIMTSZ
 40
0.0
  9
$DIMTOL
 70
     0
  9
$DIMLIM
 70
     0
  9
$DIMTIH
 70
     0
  9
$DIMTOH
 70
     0
  9
$DIMSE1
 70
     0
  9
$DIMSE2
 70
     0
  9
$DIMTAD
 70
     1
  9
$DIMZIN
 70
     9
  9
$DIMBLK
  1
Open30
  9
$DIMASO
 70
     1
  9
$DIMSHO
 70
     1
  9
$DIMPOST
  1

  9
$DIMAPOST
  1

  9
$DIMALT
 70
     0
  9
$DIMALTD
 70
     2
  9
$DIMALTF
 40
25.4
  9
$DIMLFAC
 40
1.0
  9
$DIMTOFL
 70
     1
  9
$DIMTVP
 40
0.0
  9
$DIMTIX
 70
     0
  9
$DIMSOXD
 70
     0
  9
$DIMSAH
 70
     0
  9
$DIMBLK1
  1

  9
$DIMBLK2
  1

  9
$DIMSTYLE
  2
STANDARD
  9
$DIMCLRD
 70
     4
  9
$DIMCLRE
 70
     4
  9
$DIMCLRT
 70
     7
  9
$DIMTFAC
 40
0.5
  9
$DIMGAP
 40
1.0
  9
$DIMJUST
 70
     0
  9
$DIMSD1
 70
     0
  9
$DIMSD2
 70
     0
  9
$DIMTOLJ
 70
     1
  9
$DIMTZIN
 70
     9
  9
$DIMALTZ
 70
     0
  9
$DIMALTTZ
 70
     0
  9
$DIMUPT
 70
     0
  9
$DIMDEC
 70
     4
  9
$DIMTDEC
 70
     4
  9
$DIMALTU
 70
     2
  9
$DIMALTTD
 70
     2
  9
$DIMTXSTY
  7
ROMANS
  9
$DIMAUNIT
 70
     0
  9
$DIMADEC
 70
     0
  9
$DIMALTRND
 40
0.0
  9
$DIMAZIN
 70
     0
  9
$DIMDSEP
 70
    46
  9
$DIMATFIT
 70
     3
  9
$DIMFRAC
 70
     0
  9
$DIMLDRBLK
  1
Open30
  9
$DIMLUNIT
 70
     2
  9
$DIMLWD
 70
    -2
  9
$DIMLWE
 70
    -2
  9
$DIMTMOVE
 70
     0
  9
$LUNITS
 70
     2
  9
$LUPREC
 70
     4
  9
$SKETCHINC
 40
0.1
  9
$FILLETRAD
 40
0.0
  9
$AUNITS
 70
     0
  9
$AUPREC
 70
     0
  9
$MENU
  1
.
  9
$ELEVATION
 40
0.0
  9
$PELEVATION
 40
0.0
  9
$THICKNESS
 40
0.0
  9
$LIMCHECK
 70
     0
  9
$CHAMFERA
 40
1.0
  9
$CHAMFERB
 40
1.0
  9
$CHAMFERC
 40
1.0
  9
$CHAMFERD
 40
0.0
  9
$SKPOLY
 70
     0
  9
$TDCREATE
 40
2453211.391025752
  9
$TDUCREATE
 40
2453211.016025752
  9
$TDUPDATE
 40
2453296.814869965
  9
$TDUUPDATE
 40
2453296.439869965
  9
$TDINDWG
 40
0.3131378472
  9
$TDUSRTIMER
 40
0.3131375000
  9
$USRTIMER
 70
     1
  9
$ANGBASE
 50
0.0
  9
$ANGDIR
 70
     0
  9
$PDMODE
 70
     0
  9
$PDSIZE
 40
0.0
  9
$PLINEWID
 40
0.0
  9
$SPLFRAME
 70
     0
  9
$SPLINETYPE
 70
     6
  9
$SPLINESEGS
 70
     8
  9
$HANDSEED
  5
171
  9
$SURFTAB1
 70
     6
  9
$SURFTAB2
 70
     6
  9
$SURFTYPE
 70
     6
  9
$SURFU
 70
     6
  9
$SURFV
 70
     6
  9
$UCSBASE
  2

  9
$UCSNAME
  2

  9
$UCSORG
 10
0.0
 20
0.0
 30
0.0
  9
$UCSXDIR
 10
1.0
 20
0.0
 30
0.0
  9
$UCSYDIR
 10
0.0
 20
1.0
 30
0.0
  9
$UCSORTHOREF
  2

  9
$UCSORTHOVIEW
 70
     0
  9
$UCSORGTOP
 10
0.0
 20
0.0
 30
0.0
  9
$UCSORGBOTTOM
 10
0.0
 20
0.0
 30
0.0
  9
$UCSORGLEFT
 10
0.0
 20
0.0
 30
0.0
  9
$UCSORGRIGHT
 10
0.0
 20
0.0
 30
0.0
  9
$UCSORGFRONT
 10
0.0
 20
0.0
 30
0.0
  9
$UCSORGBACK
 10
0.0
 20
0.0
 30
0.0
  9
$PUCSBASE
  2

  9
$PUCSNAME
  2

  9
$PUCSORG
 10
0.0
 20
0.0
 30
0.0
  9
$PUCSXDIR
 10
1.0
 20
0.0
 30
0.0
  9
$PUCSYDIR
 10
0.0
 20
1.0
 30
0.0
  9
$PUCSORTHOREF
  2

  9
$PUCSORTHOVIEW
 70
     0
  9
$PUCSORGTOP
 10
0.0
 20
0.0
 30
0.0
  9
$PUCSORGBOTTOM
 10
0.0
 20
0.0
 30
0.0
  9
$PUCSORGLEFT
 10
0.0
 20
0.0
 30
0.0
  9
$PUCSORGRIGHT
 10
0.0
 20
0.0
 30
0.0
  9
$PUCSORGFRONT
 10
0.0
 20
0.0
 30
0.0
  9
$PUCSORGBACK
 10
0.0
 20
0.0
 30
0.0
  9
$USERI1
 70
     0
  9
$USERI2
 70
     0
  9
$USERI3
 70
     0
  9
$USERI4
 70
     0
  9
$USERI5
 70
     0
  9
$USERR1
 40
0.0
  9
$USERR2
 40
0.0
  9
$USERR3
 40
0.0
  9
$USERR4
 40
0.0
  9
$USERR5
 40
0.0
  9
$WORLDVIEW
 70
     1
  9
$SHADEDGE
 70
     3
  9
$SHADEDIF
 70
    70
  9
$TILEMODE
 70
     1
  9
$MAXACTVP
 70
    48
  9
$PINSBASE
 10
0.0
 20
0.0
 30
0.0
  9
$PLIMCHECK
 70
     0
  9
$PEXTMIN
 10
1.000000000000000E+20
 20
1.000000000000000E+20
 30
1.000000000000000E+20
  9
$PEXTMAX
 10
-1.000000000000000E+20
 20
-1.000000000000000E+20
 30
-1.000000000000000E+20
  9
$PLIMMIN
 10
0.0
 20
0.0
  9
$PLIMMAX
 10
12.0
 20
9.0
  9
$UNITMODE
 70
     0
  9
$VISRETAIN
 70
     1
  9
$PLINEGEN
 70
     0
  9
$PSLTSCALE
 70
     1
  9
$TREEDEPTH
 70
  3020
  9
$CMLSTYLE
  2
STANDARD
  9
$CMLJUST
 70
     0
  9
$CMLSCALE
 40
1.0
  9
$PROXYGRAPHICS
 70
     1
  9
$MEASUREMENT
 70
     1
  9
$CELWEIGHT
370
    -1
  9
$ENDCAPS
280
     0
  9
$JOINSTYLE
280
     0
  9
$LWDISPLAY
290
     0
  9
$INSUNITS
 70
     0
  9
$HYPERLINKBASE
  1

  9
$STYLESHEET
  1

  9
$XEDIT
290
     1
  9
$CEPSNTYPE
380
     0
  9
$PSTYLEMODE
290
     1
  9
$FINGERPRINTGUID
  2
{8320B222-E0E9-4B23-A3D7-435E73B24A08}
  9
$VERSIONGUID
  2
{24160CD3-377E-4536-9E1E-4F2FD7CF649F}
  9
$EXTNAMES
290
     1
  9
$PSVPSCALE
 40
0.0
  9
$OLESTARTUP
290
     0
  0
ENDSEC
  0
SECTION
  2
CLASSES
  0
CLASS
  1
LWPOLYLINE
  2
AcDbPolyline
  3
AutoCAD 2000
 90
    32768
280
     0
281
     1
  0
CLASS
  1
HATCH
  2
AcDbHatch
  3
AutoCAD 2000
 90
    32768
280
     0
281
     1
  0
CLASS
  1
DICTIONARYVAR
  2
AcDbDictionaryVar
  3
AutoCAD 2000
 90
        0
280
     0
281
     0
  0
CLASS
  1
XRECORD
  2
AcDbXrecord
  3
AutoCAD 2000
 90
    32768
280
     0
281
     0
  0
CLASS
  1
ACDBDICTIONARYWDFLT
  2
AcDbDictionaryWithDefault
  3
AutoCAD 2000
 90
        0
280
     0
281
     0
  0
CLASS
  1
ACME_DOCUMENT
  2
AcMeDbDoc
  3
AcMeServices
 90
    32768
280
     1
281
     0
  0
CLASS
  1
AMGSETTINGSOBJ
  2
AmgSettingsObj
  3
"AcadM|Product Description: AutoCAD Mechanical 2000|Company: Autodesk"
 90
    32768
280
     1
281
     0
  0
CLASS
  1
ACMESCOPE
  2
AcMeScope
  3
AcMeServices
 90
    32768
280
     1
281
     0
  0
CLASS
  1
ACMECOMMANDHISTORY
  2
AcMeCommandHistory
  3
AcMeServices
 90
    32768
280
     1
281
     0
  0
CLASS
  1
ACIMSYSVARMAN
  2
AcImSysVarManager
  3
AcMeServices
 90
    32768
280
     1
281
     0
  0
CLASS
  1
ACIMINTSYSVAR
  2
AcImIntSysVar
  3
AcMeServices
 90
    32768
280
     1
281
     0
  0
CLASS
  1
ACMEDRAWINGMAN
  2
AcMeDrawingMan
  3
AcMeServices
 90
    32768
280
     1
281
     0
  0
CLASS
  1
ACMEVIEW
  2
AcMeView
  3
AcMeServices
 90
    32768
280
     1
281
     0
  0
CLASS
  1
ACDBENTITYCACHE
  2
AcMeEntityCache
  3
AcMeServices
 90
    32768
280
     1
281
     0
  0
CLASS
  1
GSMANAGER
  2
AcMeGSManager
  3
AcMeServices
 90
    32768
280
     1
281
     0
  0
CLASS
  1
AMDTINTERNALREACTOR
  2
AmdtInternalReactor
  3
AcMeServices
 90
    32768
280
     1
281
     0
  0
CLASS
  1
ACMESTATEMGR
  2
AcMeStateMgr
  3
AcMeServices
 90
    32768
280
     1
281
     0
  0
CLASS
  1
ACGREFMASTER
  2
AcGrefMaster
  3
AcAttribServices
 90
    32768
280
     1
281
     0
  0
CLASS
  1
AM_DRAWING_MGR
  2
AcDmDwgMgr
  3
AcMechDwgViewMgmt
 90
    32768
280
     1
281
     0
  0
CLASS
  1
AM_DWG_DOCUMENT
  2
AcDmDwgDocument
  3
AcMechDwgViewMgmt
 90
    32768
280
     1
281
     0
  0
CLASS
  1
AM_DWG_SHEET
  2
AcDmSheet
  3
AcMechDwgViewMgmt
 90
    32768
280
     1
281
     0
  0
CLASS
  1
AM_VIEWDIMPARMAP
  2
AcDmViewDimParMap
  3
AcMechDwgViewMgmt
 90
    32768
280
     1
281
     0
  0
CLASS
  1
ACIMREALSYSVAR
  2
AcImRealSysVar
  3
AcMeServices
 90
    32768
280
     1
281
     0
  0
CLASS
  1
AM_DWGMGR_NAME
  2
AcDmDwgMgrName
  3
AcMechDwgViewMgmt
 90
    32768
280
     1
281
     0
  0
CLASS
  1
ACME_DATABASE
  2
AcMeDbDatabase
  3
AcMeServices
 90
    32768
280
     1
281
     0
  0
CLASS
  1
ACRFINSADJUSTERMGR
  2
AcRfInsAdjusterMgr
  3
AcMeServices
 90
    32768
280
     1
281
     0
  0
CLASS
  1
ACGREFACADMASTER
  2
AcGrefacadMaster
  3
AcGrefServices
 90
    32768
280
     1
281
     0
  0
CLASS
  1
AMDTMENUSTATEMGR
  2
AmdtMenuStateMgr
  3
McadcomServices
 90
    32768
280
     1
281
     0
  0
CLASS
  1
AMDTMCOMMENUSTATE
  2
AmdtMcomMenuState
  3
McadcomServices
 90
    32768
280
     1
281
     0
  0
CLASS
  1
AMIMASTER
  2
AmiMaster
  3
AmiServices
 90
    32768
280
     1
281
     0
  0
CLASS
  1
MAPIAMMOUDLE
  2
MApiAmModule
  3
MApiAmServices
 90
    32768
280
     1
281
     0
  0
CLASS
  1
AMDTADMENUSTATE
  2
AmdtAdMenuState
  3
DesignerServices
 90
    32768
280
     1
281
     0
  0
CLASS
  1
ADAPPL
  2
AcAdAppl
  3
DesignerServices
 90
    32768
280
     1
281
     0
  0
CLASS
  1
DEPMGR
  2
AcAdDepMgr
  3
DesignerServices
 90
    32768
280
     1
281
     0
  0
CLASS
  1
PARAMMGR
  2
AcAdParamMgr
  3
DesignerServices
 90
    32768
280
     1
281
     0
  0
CLASS
  1
PARAMSCOPE
  2
AcAdParamScope
  3
DesignerServices
 90
    32768
280
     1
281
     0
  0
CLASS
  1
NAMEDAPPL
  2
AcAdNamedAppl
  3
DesignerServices
 90
    32768
280
     1
281
     0
  0
CLASS
  1
AMDTDMMENUSTATE
  2
AmdtDmMenuState
  3
AcMechDwgViewMgmt
 90
    32768
280
     1
281
     0
  0
CLASS
  1
AMDTAMMENUSTATE
  2
AmdtAmMenuState
  3
DesignerAssemblies
 90
    32768
280
     1
281
     0
  0
CLASS
  1
ACIMSTRSYSVAR
  2
AcImStrSysVar
  3
AcMeServices
 90
    32768
280
     1
281
     0
  0
CLASS
  1
ACAMPROJECT
  2
AcAmProject
  3
DesignerAssemblies
 90
    32768
280
     1
281
     0
  0
CLASS
  1
ACAMGRCOMPDEF
  2
AcAmGrCompDef
  3
DesignerAssemblies
 90
    32768
280
     1
281
     0
  0
CLASS
  1
ACCMCONTEXT
  2
AcCmContext
  3
DesignerAssemblies
 90
    32768
280
     1
281
     0
  0
CLASS
  1
ACAMCOMPDEF
  2
AcAmCompDef
  3
DesignerAssemblies
 90
    32768
280
     1
281
     0
  0
CLASS
  1
ACAMCOMPDEFMGR
  2
AcAmCompDefMgr
  3
DesignerAssemblies
 90
    32768
280
     1
281
     0
  0
CLASS
  1
AMCONTEXTMGR
  2
AcAmContextMgr
  3
DesignerAssemblies
 90
    32768
280
     1
281
     0
  0
CLASS
  1
ACAMCONTEXTMODELER
  2
AcAmContextModeler
  3
DesignerAssemblies
 90
    32768
280
     1
281
     0
  0
CLASS
  1
ACMDATADICTIONARY
  2
AcmDataDictionary
  3
"AcmSymBB|Product Description: AutoCAD Mechanical 2004 DX|Company: Autodesk"
 90
    32768
280
     1
281
     0
  0
CLASS
  1
CATALOGSTATE
  2
AcAmCatalogState
  3
DesignerAssemblies
 90
    32768
280
     1
281
     0
  0
CLASS
  1
ACAMGRCOMPDEFSET
  2
AcAmGrCompDefSet
  3
DesignerAssemblies
 90
    32768
280
     1
281
     0
  0
CLASS
  1
AMDTBROWSERDBTAB
  2
AmdtBrowserDbTab
  3
McadcomServices
 90
    32768
280
     1
281
     0
  0
CLASS
  1
CBROWSERAPPOBJECT
  2
CBrowserAppObject
  3
McadcomServices
 90
    32768
280
     1
281
     0
  0
CLASS
  1
DM_PLACEHOLDER
  2
AcDmSelsetPlaceholder
  3
AcMechDwgViewMgmt
 90
    32768
280
     1
281
     0
  0
CLASS
  1
ACMSTANDARDANSI
  2
AcmStandardANSI
  3
"Amdt_StdImp|Product Description: AutoCAD Mechanical 2004 DX|Company: Autodesk"
 90
    32768
280
     1
281
     0
  0
CLASS
  1
AMGOBJPROPCFG
  2
AmgObjPropCfg
  3
"AmgLay|Product Description: AutoCAD Mechanical 2000|Company: Autodesk"
 90
    32769
280
     1
281
     0
  0
CLASS
  1
ACMSURFSTANDARDANSI
  2
AcmSurfTextStdANSI
  3
"Amdt_StdImp|Product Description: AutoCAD Mechanical 2004 DX|Company: Autodesk"
 90
    32768
280
     1
281
     0
  0
CLASS
  1
ACMFCFSTANDARDANSI
  2
AcmFCFStdANSI
  3
"Amdt_StdImp|Product Description: AutoCAD Mechanical 2004 DX|Company: Autodesk"
 90
    32768
280
     1
281
     0
  0
CLASS
  1
ACMWELDSTANDARDANSI
  2
AcmWeldingStdANSI
  3
"Amdt_StdImp|Product Description: AutoCAD Mechanical 2004 DX|Company: Autodesk"
 90
    32768
280
     1
281
     0
  0
CLASS
  1
ACMIDSTANDARDANSI
  2
AcmIdStdANSI
  3
"Amdt_StdImp|Product Description: AutoCAD Mechanical 2004 DX|Company: Autodesk"
 90
    32768
280
     1
281
     0
  0
CLASS
  1
ACMDATUMSTANDARDANSI
  2
AcmDatumStdANSI
  3
"Amdt_StdImp|Product Description: AutoCAD Mechanical 2004 DX|Company: Autodesk"
 90
    32768
280
     1
281
     0
  0
CLASS
  1
ACMBOMSTANDARDANSI
  2
AcmBOMStdANSI
  3
"Amdt_StdImp|Product Description: AutoCAD Mechanical 2004 DX|Company: Autodesk"
 90
    32768
280
     1
281
     0
  0
CLASS
  1
ACMDETAILSTANDARDANSI
  2
AmdtDetailSymStdANSI
  3
"Amdt_StdImp|Product Description: AutoCAD Mechanical 2004 DX|Company: Autodesk"
 90
    32768
280
     1
281
     0
  0
CLASS
  1
ACMSECTIONSTANDARDANSI
  2
AmdtSectionSymStdANSI
  3
"Amdt_StdImp|Product Description: AutoCAD Mechanical 2004 DX|Company: Autodesk"
 90
    32768
280
     1
281
     0
  0
CLASS
  1
ACMCENTERLINESTANDARDANSI
  2
AmdtCenterLineStdANSI
  3
"Amdt_StdImp|Product Description: AutoCAD Mechanical 2004 DX|Company: Autodesk"
 90
    32768
280
     1
281
     0
  0
CLASS
  1
ACMTHREADLINESTANDARDANSI
  2
AmdtThreadLineStdANSI
  3
"Amdt_StdImp|Product Description: AutoCAD Mechanical 2004 DX|Company: Autodesk"
 90
    32768
280
     1
281
     0
  0
CLASS
  1
ACMNOTESTANDARDANSI
  2
AmdtNoteStdANSI
  3
"Amdt_StdImp|Product Description: AutoCAD Mechanical 2004 DX|Company: Autodesk"
 90
    32768
280
     1
281
     0
  0
CLASS
  1
AMDTNOTETEMPLATEDB
  2
AmdtNoteTemplateDB
  3
AMDT_STDIMP_MODULE_NAME
 90
    32768
280
     1
281
     0
  0
CLASS
  1
ACAMGLAYSTD
  2
AcAmgLayStd
  3
"AcAmgLayStd|Product Description: AutoCAD Mechanical 2000|Company: Autodesk"
 90
    32768
280
     1
281
     0
  0
CLASS
  1
ACAMGDIMSTD
  2
AcAmgDimStd
  3
"AcAmgDimStd|Product Description: AutoCAD Mechanical 2000|Company: Autodesk"
 90
    32768
280
     1
281
     0
  0
CLASS
  1
ACAMGHOLECHARTSTDANSI
  2
AcAmgHoleChartStdANSI
  3
ACMSYMBB_MODULE_NAME
 90
    32768
280
     1
281
     0
  0
CLASS
  1
ACAMGTITLESTD
  2
AcAmgTitleStd
  3
"TITLEAPP"
 90
    32768
280
     1
281
     0
  0
CLASS
  1
LAYER_INDEX
  2
AcDbLayerIndex
  3
AutoCAD 2000
 90
    32768
280
     0
281
     0
  0
CLASS
  1
IDBUFFER
  2
AcDbIdBuffer
  3
AutoCAD 2000
 90
    32768
280
     0
281
     0
  0
CLASS
  1
ACAMGFILTERDAT
  2
AcAmgFilterDat
  3
"AcadM|Product Description: AutoCAD Mechanical 2000|Company: Autodesk"
 90
    32768
280
     1
281
     0
  0
CLASS
  1
ACDBPLACEHOLDER
  2
AcDbPlaceHolder
  3
AutoCAD 2000
 90
        0
280
     0
281
     0
  0
CLASS
  1
LAYOUT
  2
AcDbLayout
  3
AutoCAD 2000
 90
        0
280
     0
281
     0
  0
CLASS
  1
ACAD_PROXY_OBJECT_WRAPPER
  2
AcDbProxyObjectWrapper
  3
AutoCAD 2000
 90
    32768
280
     0
281
     0
  0
CLASS
  1
LONG_TRANSACTION
  2
AcDbLongTransaction
  3
AutoCAD 2000
 90
    32768
280
     0
281
     0
  0
CLASS
  1
LWPOLYLINE
  2
AcDbPolyline
  3
AutoCAD 2000
 90
    32768
280
     0
281
     1
  0
CLASS
  1
HATCH
  2
AcDbHatch
  3
AutoCAD 2000
 90
    32768
280
     0
281
     1
  0
CLASS
  1
XRECORD
  2
AcDbXrecord
  3
AutoCAD 2000
 90
    32768
280
     0
281
     0
  0
CLASS
  1
LONG_TRANSACTION
  2
AcDbLongTransaction
  3
AutoCAD 2000
 90
    32768
280
     0
281
     0
  0
CLASS
  1
LWPOLYLINE
  2
AcDbPolyline
  3
AutoCAD 2000
 90
    32768
280
     0
281
     1
  0
CLASS
  1
HATCH
  2
AcDbHatch
  3
AutoCAD 2000
 90
    32768
280
     0
281
     1
  0
CLASS
  1
XRECORD
  2
AcDbXrecord
  3
AutoCAD 2000
 90
    32768
280
     0
281
     0
  0
ENDSEC
  0
SECTION
  2
TABLES
  0
TABLE
  2
VPORT
  5
23
330
0
100
AcDbSymbolTable
 70
     2
  0
VPORT
  5
170
330
23
100
AcDbSymbolTableRecord
100
AcDbViewportTableRecord
  2
*Active
 70
     0
 10
0.0
 20
0.0
 11
1.0
 21
1.0
 12
4650.96007459834
 22
3252.487006366706
 13
0.0
 23
0.0
 14
0.5
 24
0.5
 15
0.5
 25
0.5
 16
0.0
 26
0.0
 36
1.0
 17
0.0
 27
0.0
 37
0.0
 40
121.188940722089
 41
1.724719101123595
 42
50.0
 43
0.0
 44
0.0
 50
0.0
 51
0.0
 71
     0
 72
   100
 73
     1
 74
     1
 75
     0
 76
     0
 77
     0
 78
     0
281
     0
 65
     1
110
0.0
120
0.0
130
0.0
111
1.0
121
0.0
131
0.0
112
0.0
122
1.0
132
0.0
 79
     0
146
0.0
  0
ENDTAB
  0
TABLE
  2
LTYPE
  5
1E
330
0
100
AcDbSymbolTable
 70
     2
  0
LTYPE
  5
1F
330
1E
100
AcDbSymbolTableRecord
100
AcDbLinetypeTableRecord
  2
BYBLOCK
 70
     0
  3

 72
    65
 73
     0
 40
0.0
  0
LTYPE
  5
20
330
1E
100
AcDbSymbolTableRecord
100
AcDbLinetypeTableRecord
  2
BYLAYER
 70
     0
  3

 72
    65
 73
     0
 40
0.0
  0
LTYPE
  5
A
330
1E
100
AcDbSymbolTableRecord
100
AcDbLinetypeTableRecord
  2
CONTINUOUS
 70
     0
  3
Solid line
 72
    65
 73
     0
 40
0.0
  0
LTYPE
  5
44
330
1E
100
AcDbSymbolTableRecord
100
AcDbLinetypeTableRecord
  2
CENTER
 70
     0
  3
Center ____ _ ____ _ ____ _ ____ _ ____ _ ____
 72
    65
 73
     4
 40
2.0
 49
1.25
 74
     0
 49
-0.25
 74
     0
 49
0.25
 74
     0
 49
-0.25
 74
     0
  0
ENDTAB
  0
TABLE
  2
LAYER
  5
18
102
{ACAD_XDICTIONARY
360
19
102
}
330
0
100
AcDbSymbolTable
 70
     4
  0
LAYER
  5
6
330
18
100
AcDbSymbolTableRecord
100
AcDbLayerTableRecord
  2
0
 70
     0
 62
     7
  6
CONTINUOUS
370
    -3
390
7
  0
LAYER
  5
3D
330
18
100
AcDbSymbolTableRecord
100
AcDbLayerTableRecord
  2
DEFPOINTS
 70
     0
 62
     7
  6
CONTINUOUS
290
     0
370
    -3
390
7
  0
LAYER
  5
C0
330
18
100
AcDbSymbolTableRecord
100
AcDbLayerTableRecord
  2
외형선
 70
     0
 62
     3
  6
CONTINUOUS
370
    -3
390
7
  0
LAYER
  5
2D
330
18
100
AcDbSymbolTableRecord
100
AcDbLayerTableRecord
  2
AM_0
 70
     0
 62
     7
  6
CONTINUOUS
370
    30
390
7
  0
ENDTAB
  0
TABLE
  2
STYLE
  5
1B
330
0
100
AcDbSymbolTable
 70
     4
  0
STYLE
  5
1C
330
1B
100
AcDbSymbolTableRecord
100
AcDbTextStyleTableRecord
  2
STANDARD
 70
     0
 40
0.0
 41
1.0
 50
0.0
 71
     0
 42
0.2
  3
romans.shx
  4

  0
STYLE
  5
2E
330
1B
100
AcDbSymbolTableRecord
100
AcDbTextStyleTableRecord
  2
ROMANS
 70
     0
 40
0.0
 41
1.0
 50
0.0
 71
     0
 42
2.7
  3
romans
  4

  0
STYLE
  5
78
330
1B
100
AcDbSymbolTableRecord
100
AcDbTextStyleTableRecord
  2
MONOTXT
 70
     0
 40
0.0
 41
1.0
 50
0.0
 71
     0
 42
2.0
  3
BatangChe.ttf
  4

1001
ACAD
1000
BatangChe
1071
    33041
  0
STYLE
  5
35
330
1B
100
AcDbSymbolTableRecord
100
AcDbTextStyleTableRecord
  2
궁서체
 70
     0
 40
0.0
 41
1.0
 50
0.0
 71
     0
 42
0.2
  3
GungsuhChe.ttf
  4

1001
ACAD
1000
GungsuhChe
1071
    33041
  0
ENDTAB
  0
TABLE
  2
VIEW
  5
21
330
0
100
AcDbSymbolTable
 70
     0
  0
ENDTAB
  0
TABLE
  2
UCS
  5
22
330
0
100
AcDbSymbolTable
 70
     0
  0
ENDTAB
  0
TABLE
  2
APPID
  5
25
330
0
100
AcDbSymbolTable
 70
     1
  0
APPID
  5
26
330
25
100
AcDbSymbolTableRecord
100
AcDbRegAppTableRecord
  2
ACAD
 70
     0
  0
ENDTAB
  0
TABLE
  2
DIMSTYLE
  5
27
330
0
100
AcDbSymbolTable
 70
     1
100
AcDbDimStyleTable
 71
     0
  0
DIMSTYLE
105
28
102
{ACAD_REACTORS
330
6A
330
5D
330
50
330
37
330
79
330
95
330
86
102
}
330
27
100
AcDbSymbolTableRecord
100
AcDbDimStyleTableRecord
  2
STANDARD
 70
     0
340
1C
  0
ENDTAB
  0
TABLE
  2
BLOCK_RECORD
  5
1
330
0
100
AcDbSymbolTable
 70
    20
  0
BLOCK_RECORD
  5
2
102
{ACAD_XDICTIONARY
360
3
102
}
330
1
100
AcDbSymbolTableRecord
100
AcDbBlockTableRecord
  2
*MODEL_SPACE
340
C
  0
BLOCK_RECORD
  5
10
102
{ACAD_XDICTIONARY
360
11
102
}
330
1
100
AcDbSymbolTableRecord
100
AcDbBlockTableRecord
  2
*PAPER_SPACE
340
15
  0
BLOCK_RECORD
  5
2F
330
1
100
AcDbSymbolTableRecord
100
AcDbBlockTableRecord
  2
_Open30
340
0
102
{BLKREFS
331
6F
331
70
331
62
331
63
331
55
331
56
331
7E
331
7F
331
9A
331
9B
331
3B
331
8D
331
8E
331
D5
331
D6
331
C6
331
C7
331
49
331
B7
331
B8
331
AA
331
AB
331
11A
331
125
331
126
331
131
331
132
331
13D
331
13E
331
149
331
14A
331
157
331
158
331
163
331
164
102
}
  0
BLOCK_RECORD
  5
117
330
1
100
AcDbSymbolTableRecord
100
AcDbBlockTableRecord
  2
*D13
340
0
  0
BLOCK_RECORD
  5
121
330
1
100
AcDbSymbolTableRecord
100
AcDbBlockTableRecord
  2
*D14
340
0
  0
BLOCK_RECORD
  5
12D
330
1
100
AcDbSymbolTableRecord
100
AcDbBlockTableRecord
  2
*D15
340
0
  0
BLOCK_RECORD
  5
139
330
1
100
AcDbSymbolTableRecord
100
AcDbBlockTableRecord
  2
*D16
340
0
  0
BLOCK_RECORD
  5
145
330
1
100
AcDbSymbolTableRecord
100
AcDbBlockTableRecord
  2
*D17
340
0
  0
BLOCK_RECORD
  5
151
330
1
100
AcDbSymbolTableRecord
100
AcDbBlockTableRecord
  2
*D18
340
0
  0
BLOCK_RECORD
  5
15F
330
1
100
AcDbSymbolTableRecord
100
AcDbBlockTableRecord
  2
*D19
340
0
  0
ENDTAB
  0
ENDSEC
  0
SECTION
  2
BLOCKS
  0
BLOCK
  5
5
330
2
100
AcDbEntity
  8
0
100
AcDbBlockBegin
  2
*MODEL_SPACE
 70
     0
 10
0.0
 20
0.0
 30
0.0
  3
*MODEL_SPACE
  1

  0
ENDBLK
  5
B
330
2
100
AcDbEntity
  8
0
100
AcDbBlockEnd
  0
BLOCK
  5
13
330
10
100
AcDbEntity
 67
     1
  8
0
100
AcDbBlockBegin
  2
*PAPER_SPACE
 70
     0
 10
0.0
 20
0.0
 30
0.0
  3
*PAPER_SPACE
  1

  0
ENDBLK
  5
14
330
10
100
AcDbEntity
 67
     1
  8
0
100
AcDbBlockEnd
  0
BLOCK
  5
33
330
2F
100
AcDbEntity
  8
0
370
    -3
100
AcDbBlockBegin
  2
_Open30
 70
     0
 10
0.0
 20
0.0
 30
0.0
  3
_Open30
  1

  0
LINE
  5
30
330
2F
100
AcDbEntity
  8
0
  6
ByBlock
 62
     0
370
    -2
100
AcDbLine
 10
-1.0
 20
0.26794919
 30
0.0
 11
0.0
 21
0.0
 31
0.0
  0
LINE
  5
31
330
2F
100
AcDbEntity
  8
0
  6
ByBlock
 62
     0
370
    -2
100
AcDbLine
 10
0.0
 20
0.0
 30
0.0
 11
-1.0
 21
-0.26794919
 31
0.0
  0
LINE
  5
32
330
2F
100
AcDbEntity
  8
0
  6
ByBlock
 62
     0
370
    -2
100
AcDbLine
 10
0.0
 20
0.0
 30
0.0
 11
-1.0
 21
0.0
 31
0.0
  0
ENDBLK
  5
34
330
2F
100
AcDbEntity
  8
0
370
    -3
100
AcDbBlockEnd
  0
BLOCK
  5
11D
330
117
100
AcDbEntity
  8
0
100
AcDbBlockBegin
  2
*D13
 70
     1
 10
0.0
 20
0.0
 30
0.0
  3
*D13
  1

  0
LINE
  5
118
330
117
100
AcDbEntity
  8
0
 62
     4
100
AcDbLine
 10
4591.371469132442
 20
3289.184764777697
 30
0.0
 11
4598.322350733392
 21
3282.055252953795
 31
0.0
  0
MTEXT
  5
119
330
117
100
AcDbEntity
  8
0
 62
     7
100
AcDbMText
 10
4595.775084148914
 20
3287.712045582623
 30
0.0
 40
2.549999999999999
 41
0.0
 71
     5
 72
     1
  1
\A1;R10
  7
ROMANS
 11
0.6980799312286372
 21
-0.7160198388423475
 31
0.0
 73
     1
 44
1.0
  0
INSERT
  5
11A
330
117
100
AcDbEntity
  8
0
 62
     4
100
AcDbBlockReference
  2
_Open30
 10
4599.50908661648
 20
3280.838019227763
 30
0.0
 41
1.7
 42
1.7
 43
1.7
 50
314.2731588861413
  0
POINT
  5
11B
330
117
100
AcDbEntity
  8
DEFPOINTS
 62
     0
100
AcDbPoint
 10
4599.50908661648
 20
3280.838019227763
 30
0.0
  0
POINT
  5
11C
330
117
100
AcDbEntity
  8
DEFPOINTS
 62
     0
100
AcDbPoint
 10
4606.489885928765
 20
3273.677820839341
 30
0.0
  0
ENDBLK
  5
11E
330
117
100
AcDbEntity
  8
0
100
AcDbBlockEnd
  0
BLOCK
  5
12B
330
121
100
AcDbEntity
  8
0
100
AcDbBlockBegin
  2
*D14
 70
     1
 10
0.0
 20
0.0
 30
0.0
  3
*D14
  1

  0
LINE
  5
122
330
121
100
AcDbEntity
  8
0
 62
     4
100
AcDbLine
 10
4596.489885928765
 20
3242.827820839341
 30
0.0
 11
4596.489885928765
 21
3209.90818654474
 31
0.0
  0
LINE
  5
123
330
121
100
AcDbEntity
  8
0
 62
     4
100
AcDbLine
 10
4686.489885928766
 20
3242.827820839341
 30
0.0
 11
4686.489885928766
 21
3209.90818654474
 31
0.0
  0
LINE
  5
124
330
121
100
AcDbEntity
  8
0
 62
     4
100
AcDbLine
 10
4598.189885928766
 20
3211.013186544739
 30
0.0
 11
4684.789885928766
 21
3211.013186544739
 31
0.0
  0
INSERT
  5
125
330
121
100
AcDbEntity
  8
0
 62
     4
100
AcDbBlockReference
  2
_Open30
 10
4596.489885928765
 20
3211.013186544739
 30
0.0
 41
1.7
 42
1.7
 43
1.7
 50
180.0
  0
INSERT
  5
126
330
121
100
AcDbEntity
  8
0
 62
     4
100
AcDbBlockReference
  2
_Open30
 10
4686.489885928766
 20
3211.013186544739
 30
0.0
 41
1.7
 42
1.7
 43
1.7
  0
MTEXT
  5
127
330
121
100
AcDbEntity
  8
0
 62
     7
100
AcDbMText
 10
4641.489885928765
 20
3213.13818654474
 30
0.0
 40
2.549999999999999
 41
0.0
 71
     5
 72
     1
  1
\A1;90
  7
ROMANS
 73
     1
 44
1.0
  0
POINT
  5
128
330
121
100
AcDbEntity
  8
DEFPOINTS
 62
     0
100
AcDbPoint
 10
4596.489885928765
 20
3243.67782083934
 30
0.0
  0
POINT
  5
129
330
121
100
AcDbEntity
  8
DEFPOINTS
 62
     0
100
AcDbPoint
 10
4686.489885928766
 20
3243.67782083934
 30
0.0
  0
POINT
  5
12A
330
121
100
AcDbEntity
  8
DEFPOINTS
 62
     0
100
AcDbPoint
 10
4686.489885928766
 20
3211.013186544739
 30
0.0
  0
ENDBLK
  5
12C
330
121
100
AcDbEntity
  8
0
100
AcDbBlockEnd
  0
BLOCK
  5
137
330
12D
100
AcDbEntity
  8
0
100
AcDbBlockBegin
  2
*D15
 70
     1
 10
0.0
 20
0.0
 30
0.0
  3
*D15
  1

  0
LINE
  5
12E
330
12D
100
AcDbEntity
  8
0
 62
     4
100
AcDbLine
 10
4603.989885928766
 20
3240.177786487691
 30
0.0
 11
4603.989885928766
 21
3219.619828647087
 31
0.0
  0
LINE
  5
12F
330
12D
100
AcDbEntity
  8
0
 62
     4
100
AcDbLine
 10
4678.989885928766
 20
3242.827820839341
 30
0.0
 11
4678.989885928766
 21
3219.619828647087
 31
0.0
  0
LINE
  5
130
330
12D
100
AcDbEntity
  8
0
 62
     4
100
AcDbLine
 10
4605.689885928765
 20
3220.724828647087
 30
0.0
 11
4677.289885928766
 21
3220.724828647087
 31
0.0
  0
INSERT
  5
131
330
12D
100
AcDbEntity
  8
0
 62
     4
100
AcDbBlockReference
  2
_Open30
 10
4603.989885928766
 20
3220.724828647087
 30
0.0
 41
1.7
 42
1.7
 43
1.7
 50
180.0
  0
INSERT
  5
132
330
12D
100
AcDbEntity
  8
0
 62
     4
100
AcDbBlockReference
  2
_Open30
 10
4678.989885928766
 20
3220.724828647087
 30
0.0
 41
1.7
 42
1.7
 43
1.7
  0
MTEXT
  5
133
330
12D
100
AcDbEntity
  8
0
 62
     7
100
AcDbMText
 10
4641.489885928765
 20
3222.849828647087
 30
0.0
 40
2.549999999999999
 41
0.0
 71
     5
 72
     1
  1
\A1;75
  7
ROMANS
 73
     1
 44
1.0
  0
POINT
  5
134
330
12D
100
AcDbEntity
  8
DEFPOINTS
 62
     0
100
AcDbPoint
 10
4603.989885928766
 20
3241.027786487691
 30
0.0
  0
POINT
  5
135
330
12D
100
AcDbEntity
  8
DEFPOINTS
 62
     0
100
AcDbPoint
 10
4678.989885928766
 20
3243.67782083934
 30
0.0
  0
POINT
  5
136
330
12D
100
AcDbEntity
  8
DEFPOINTS
 62
     0
100
AcDbPoint
 10
4678.989885928766
 20
3220.724828647087
 30
0.0
  0
ENDBLK
  5
138
330
12D
100
AcDbEntity
  8
0
100
AcDbBlockEnd
  0
BLOCK
  5
143
330
139
100
AcDbEntity
  8
0
100
AcDbBlockBegin
  2
*D16
 70
     1
 10
0.0
 20
0.0
 30
0.0
  3
*D16
  1

  0
LINE
  5
13A
330
139
100
AcDbEntity
  8
0
 62
     4
100
AcDbLine
 10
4611.489885928766
 20
3242.827820839341
 30
0.0
 11
4611.489885928766
 21
3228.649951636425
 31
0.0
  0
LINE
  5
13B
330
139
100
AcDbEntity
  8
0
 62
     4
100
AcDbLine
 10
4671.489885928766
 20
3242.827820839341
 30
0.0
 11
4671.489885928766
 21
3228.649951636425
 31
0.0
  0
LINE
  5
13C
330
139
100
AcDbEntity
  8
0
 62
     4
100
AcDbLine
 10
4613.189885928766
 20
3229.754951636425
 30
0.0
 11
4669.789885928766
 21
3229.754951636425
 31
0.0
  0
INSERT
  5
13D
330
139
100
AcDbEntity
  8
0
 62
     4
100
AcDbBlockReference
  2
_Open30
 10
4611.489885928766
 20
3229.754951636425
 30
0.0
 41
1.7
 42
1.7
 43
1.7
 50
180.0
  0
INSERT
  5
13E
330
139
100
AcDbEntity
  8
0
 62
     4
100
AcDbBlockReference
  2
_Open30
 10
4671.489885928766
 20
3229.754951636425
 30
0.0
 41
1.7
 42
1.7
 43
1.7
  0
MTEXT
  5
13F
330
139
100
AcDbEntity
  8
0
 62
     7
100
AcDbMText
 10
4641.489885928765
 20
3231.879951636425
 30
0.0
 40
2.549999999999999
 41
0.0
 71
     5
 72
     1
  1
\A1;60
  7
ROMANS
 73
     1
 44
1.0
  0
POINT
  5
140
330
139
100
AcDbEntity
  8
DEFPOINTS
 62
     0
100
AcDbPoint
 10
4611.489885928766
 20
3243.67782083934
 30
0.0
  0
POINT
  5
141
330
139
100
AcDbEntity
  8
DEFPOINTS
 62
     0
100
AcDbPoint
 10
4671.489885928766
 20
3243.67782083934
 30
0.0
  0
POINT
  5
142
330
139
100
AcDbEntity
  8
DEFPOINTS
 62
     0
100
AcDbPoint
 10
4671.489885928766
 20
3229.754951636425
 30
0.0
  0
ENDBLK
  5
144
330
139
100
AcDbEntity
  8
0
100
AcDbBlockEnd
  0
BLOCK
  5
14F
330
145
100
AcDbEntity
  8
0
100
AcDbBlockBegin
  2
*D17
 70
     1
 10
0.0
 20
0.0
 30
0.0
  3
*D17
  1

  0
LINE
  5
146
330
145
100
AcDbEntity
  8
0
 62
     4
100
AcDbLine
 10
4677.339885928766
 20
3283.67782083934
 30
0.0
 11
4708.351658178398
 21
3283.67782083934
 31
0.0
  0
LINE
  5
147
330
145
100
AcDbEntity
  8
0
 62
     4
100
AcDbLine
 10
4687.339885928766
 20
3243.67782083934
 30
0.0
 11
4708.351658178398
 21
3243.67782083934
 31
0.0
  0
LINE
  5
148
330
145
100
AcDbEntity
  8
0
 62
     4
100
AcDbLine
 10
4707.246658178398
 20
3281.97782083934
 30
0.0
 11
4707.246658178398
 21
3245.37782083934
 31
0.0
  0
INSERT
  5
149
330
145
100
AcDbEntity
  8
0
 62
     4
100
AcDbBlockReference
  2
_Open30
 10
4707.246658178398
 20
3283.67782083934
 30
0.0
 41
1.7
 42
1.7
 43
1.7
 50
90.0
  0
INSERT
  5
14A
330
145
100
AcDbEntity
  8
0
 62
     4
100
AcDbBlockReference
  2
_Open30
 10
4707.246658178398
 20
3243.67782083934
 30
0.0
 41
1.7
 42
1.7
 43
1.7
 50
270.0
  0
MTEXT
  5
14B
330
145
100
AcDbEntity
  8
0
 62
     7
100
AcDbMText
 10
4705.121658178398
 20
3263.67782083934
 30
0.0
 40
2.549999999999999
 41
0.0
 71
     5
 72
     1
  1
\A1;40
  7
ROMANS
 11
0.0000000000000001
 21
1.0
 31
0.0
 73
     1
 44
1.0
  0
POINT
  5
14C
330
145
100
AcDbEntity
  8
DEFPOINTS
 62
     0
100
AcDbPoint
 10
4676.489885928766
 20
3283.67782083934
 30
0.0
  0
POINT
  5
14D
330
145
100
AcDbEntity
  8
DEFPOINTS
 62
     0
100
AcDbPoint
 10
4686.489885928766
 20
3243.67782083934
 30
0.0
  0
POINT
  5
14E
330
145
100
AcDbEntity
  8
DEFPOINTS
 62
     0
100
AcDbPoint
 10
4707.246658178398
 20
3243.67782083934
 30
0.0
  0
ENDBLK
  5
150
330
145
100
AcDbEntity
  8
0
100
AcDbBlockEnd
  0
BLOCK
  5
15D
330
151
100
AcDbEntity
  8
0
100
AcDbBlockBegin
  2
*D18
 70
     1
 10
0.0
 20
0.0
 30
0.0
  3
*D18
  1

  0
LINE
  5
152
330
151
100
AcDbEntity
  8
0
 62
     4
100
AcDbLine
 10
4677.339885928766
 20
3283.67782083934
 30
0.0
 11
4698.632505771614
 21
3283.67782083934
 31
0.0
  0
LINE
  5
153
330
151
100
AcDbEntity
  8
0
 62
     4
100
AcDbLine
 10
4677.339885928766
 20
3281.677820839341
 30
0.0
 11
4698.632505771614
 21
3281.677820839341
 31
0.0
  0
LINE
  5
154
330
151
100
AcDbEntity
  8
0
 62
     4
100
AcDbLine
 10
4697.527505771614
 20
3285.37782083934
 30
0.0
 11
4697.527505771614
 21
3287.077820839341
 31
0.0
  0
LINE
  5
155
330
151
100
AcDbEntity
  8
0
 62
     4
100
AcDbLine
 10
4697.527505771614
 20
3279.977820839341
 30
0.0
 11
4697.527505771614
 21
3274.87782083934
 31
0.0
  0
LINE
  5
156
330
151
100
AcDbEntity
  8
0
 62
     4
100
AcDbLine
 10
4697.527505771614
 20
3283.67782083934
 30
0.0
 11
4697.527505771614
 21
3281.677820839341
 31
0.0
  0
INSERT
  5
157
330
151
100
AcDbEntity
  8
0
 62
     4
100
AcDbBlockReference
  2
_Open30
 10
4697.527505771614
 20
3283.67782083934
 30
0.0
 41
1.7
 42
1.7
 43
1.7
 50
270.0
  0
INSERT
  5
158
330
151
100
AcDbEntity
  8
0
 62
     4
100
AcDbBlockReference
  2
_Open30
 10
4697.527505771614
 20
3281.677820839341
 30
0.0
 41
1.7
 42
1.7
 43
1.7
 50
90.0
  0
MTEXT
  5
159
330
151
100
AcDbEntity
  8
0
 62
     7
100
AcDbMText
 10
4695.402505771613
 20
3276.577820839341
 30
0.0
 40
2.549999999999999
 41
0.0
 71
     5
 72
     1
  1
\A1;2
  7
ROMANS
 11
0.0000000000000001
 21
1.0
 31
0.0
 73
     1
 44
1.0
  0
POINT
  5
15A
330
151
100
AcDbEntity
  8
DEFPOINTS
 62
     0
100
AcDbPoint
 10
4676.489885928766
 20
3283.67782083934
 30
0.0
  0
POINT
  5
15B
330
151
100
AcDbEntity
  8
DEFPOINTS
 62
     0
100
AcDbPoint
 10
4676.489885928766
 20
3281.677820839341
 30
0.0
  0
POINT
  5
15C
330
151
100
AcDbEntity
  8
DEFPOINTS
 62
     0
100
AcDbPoint
 10
4697.527505771614
 20
3281.677820839341
 30
0.0
  0
ENDBLK
  5
15E
330
151
100
AcDbEntity
  8
0
100
AcDbBlockEnd
  0
BLOCK
  5
169
330
15F
100
AcDbEntity
  8
0
100
AcDbBlockBegin
  2
*D19
 70
     1
 10
0.0
 20
0.0
 30
0.0
  3
*D19
  1

  0
LINE
  5
160
330
15F
100
AcDbEntity
  8
0
 62
     4
100
AcDbLine
 10
4687.339885928766
 20
3263.67782083934
 30
0.0
 11
4698.632505771614
 21
3263.67782083934
 31
0.0
  0
LINE
  5
161
330
15F
100
AcDbEntity
  8
0
 62
     4
100
AcDbLine
 10
4687.339885928766
 20
3243.67782083934
 30
0.0
 11
4698.632505771614
 21
3243.67782083934
 31
0.0
  0
LINE
  5
162
330
15F
100
AcDbEntity
  8
0
 62
     4
100
AcDbLine
 10
4697.527505771614
 20
3261.977820839341
 30
0.0
 11
4697.527505771614
 21
3245.37782083934
 31
0.0
  0
INSERT
  5
163
330
15F
100
AcDbEntity
  8
0
 62
     4
100
AcDbBlockReference
  2
_Open30
 10
4697.527505771614
 20
3263.67782083934
 30
0.0
 41
1.7
 42
1.7
 43
1.7
 50
90.0
  0
INSERT
  5
164
330
15F
100
AcDbEntity
  8
0
 62
     4
100
AcDbBlockReference
  2
_Open30
 10
4697.527505771614
 20
3243.67782083934
 30
0.0
 41
1.7
 42
1.7
 43
1.7
 50
270.0
  0
MTEXT
  5
165
330
15F
100
AcDbEntity
  8
0
 62
     7
100
AcDbMText
 10
4695.402505771613
 20
3253.677820839341
 30
0.0
 40
2.549999999999999
 41
0.0
 71
     5
 72
     1
  1
\A1;20
  7
ROMANS
 11
0.0000000000000001
 21
1.0
 31
0.0
 73
     1
 44
1.0
  0
POINT
  5
166
330
15F
100
AcDbEntity
  8
DEFPOINTS
 62
     0
100
AcDbPoint
 10
4686.489885928766
 20
3263.67782083934
 30
0.0
  0
POINT
  5
167
330
15F
100
AcDbEntity
  8
DEFPOINTS
 62
     0
100
AcDbPoint
 10
4686.489885928766
 20
3243.67782083934
 30
0.0
  0
POINT
  5
168
330
15F
100
AcDbEntity
  8
DEFPOINTS
 62
     0
100
AcDbPoint
 10
4697.527505771614
 20
3243.67782083934
 30
0.0
  0
ENDBLK
  5
16A
330
15F
100
AcDbEntity
  8
0
100
AcDbBlockEnd
  0
ENDSEC
  0
SECTION
  2
ENTITIES
  0
DIMENSION
  5
37
330
2
100
AcDbEntity
  8
0
 62
     3
370
    -3
100
AcDbDimension
  2
*D13
 10
4606.489885928765
 20
3273.677820839341
 30
0.0
 11
4595.775084148914
 21
3287.712045582623
 31
0.0
 70
    36
 71
     5
 42
-1.0
  3
STANDARD
100
AcDbRadialDimension
 15
4599.50908661648
 25
3280.838019227763
 35
0.0
 40
0.0
1001
ACAD
1000
DSTYLE
1002
{
1070
    40
1040
0.85
1070
    41
1040
2.0
1070
    42
1040
1.0
1070
    43
1040
6.0
1070
    44
1040
1.3
1070
    47
1040
0.3
1070
    73
1070
     0
1070
    74
1070
     0
1070
    77
1070
     1
1070
    78
1070
     9
1070
   140
1040
3.0
1070
   141
1040
0.0
1070
   146
1040
0.5
1070
   147
1040
1.0
1070
   172
1070
     0
1070
   176
1070
     4
1070
   177
1070
     4
1070
   178
1070
     7
1070
   284
1070
     9
1070
   340
1005
2E
1070
   341
1005
2F
1070
     5
1000
OPEN30
1002
}
  0
LINE
  5
43
330
2
100
AcDbEntity
  8
0
  6
CENTER
 62
     1
 48
0.5
370
    -3
100
AcDbLine
 10
4678.989885928766
 20
3241.027786487691
 30
0.0
 11
4678.989885928766
 21
3256.059390064445
 31
0.0
  0
LINE
  5
4F
330
2
100
AcDbEntity
  8
0
  6
CENTER
 62
     1
 48
0.5
370
    -3
100
AcDbLine
 10
4603.989885928766
 20
3241.027786487691
 30
0.0
 11
4603.989885928766
 21
3256.059390064445
 31
0.0
  0
DIMENSION
  5
50
330
2
100
AcDbEntity
  8
0
 62
     3
370
    -3
100
AcDbDimension
  2
*D14
 10
4686.489885928766
 20
3211.013186544739
 30
0.0
 11
4641.489885928765
 21
3213.13818654474
 31
0.0
 70
    32
 71
     5
 42
-1.0
  3
STANDARD
100
AcDbAlignedDimension
 13
4596.489885928765
 23
3243.67782083934
 33
0.0
 14
4686.489885928766
 24
3243.67782083934
 34
0.0
100
AcDbRotatedDimension
1001
ACAD
1000
DSTYLE
1002
{
1070
    40
1040
0.85
1070
    41
1040
2.0
1070
    42
1040
1.0
1070
    43
1040
6.0
1070
    44
1040
1.3
1070
    47
1040
0.3
1070
    73
1070
     0
1070
    74
1070
     0
1070
    77
1070
     1
1070
    78
1070
     9
1070
   140
1040
3.0
1070
   141
1040
0.0
1070
   146
1040
0.5
1070
   147
1040
1.0
1070
   172
1070
     1
1070
   176
1070
     4
1070
   177
1070
     4
1070
   178
1070
     7
1070
   284
1070
     9
1070
   340
1005
2E
1070
   341
1005
2F
1070
     5
1000
OPEN30
1002
}
  0
DIMENSION
  5
5D
330
2
100
AcDbEntity
  8
0
 62
     3
370
    -3
100
AcDbDimension
  2
*D15
 10
4678.989885928766
 20
3220.724828647087
 30
0.0
 11
4641.489885928765
 21
3222.849828647087
 31
0.0
 70
    32
 71
     5
 42
-1.0
  3
STANDARD
100
AcDbAlignedDimension
 13
4603.989885928766
 23
3241.027786487691
 33
0.0
 14
4678.989885928766
 24
3243.67782083934
 34
0.0
100
AcDbRotatedDimension
1001
ACAD
1000
DSTYLE
1002
{
1070
    40
1040
0.85
1070
    41
1040
2.0
1070
    42
1040
1.0
1070
    43
1040
6.0
1070
    44
1040
1.3
1070
    47
1040
0.3
1070
    73
1070
     0
1070
    74
1070
     0
1070
    77
1070
     1
1070
    78
1070
     9
1070
   140
1040
3.0
1070
   141
1040
0.0
1070
   146
1040
0.5
1070
   147
1040
1.0
1070
   172
1070
     1
1070
   176
1070
     4
1070
   177
1070
     4
1070
   178
1070
     7
1070
   284
1070
     9
1070
   340
1005
2E
1070
   341
1005
2F
1070
     5
1000
OPEN30
1002
}
  0
DIMENSION
  5
6A
330
2
100
AcDbEntity
  8
0
 62
     3
370
    -3
100
AcDbDimension
  2
*D16
 10
4671.489885928766
 20
3229.754951636425
 30
0.0
 11
4641.489885928765
 21
3231.879951636425
 31
0.0
 70
    32
 71
     5
 42
-1.0
  3
STANDARD
100
AcDbAlignedDimension
 13
4611.489885928766
 23
3243.67782083934
 33
0.0
 14
4671.489885928766
 24
3243.67782083934
 34
0.0
100
AcDbRotatedDimension
1001
ACAD
1000
DSTYLE
1002
{
1070
    40
1040
0.85
1070
    41
1040
2.0
1070
    42
1040
1.0
1070
    43
1040
6.0
1070
    44
1040
1.3
1070
    47
1040
0.3
1070
    73
1070
     0
1070
    74
1070
     0
1070
    77
1070
     1
1070
    78
1070
     9
1070
   140
1040
3.0
1070
   141
1040
0.0
1070
   146
1040
0.5
1070
   147
1040
1.0
1070
   172
1070
     1
1070
   176
1070
     4
1070
   177
1070
     4
1070
   178
1070
     7
1070
   284
1070
     9
1070
   340
1005
2E
1070
   341
1005
2F
1070
     5
1000
OPEN30
1002
}
  0
DIMENSION
  5
79
330
2
100
AcDbEntity
  8
0
 62
     3
370
    -3
100
AcDbDimension
  2
*D17
 10
4707.246658178398
 20
3243.67782083934
 30
0.0
 11
4705.121658178398
 21
3263.67782083934
 31
0.0
 70
    32
 71
     5
 42
-1.0
  3
STANDARD
100
AcDbAlignedDimension
 13
4676.489885928766
 23
3283.67782083934
 33
0.0
 14
4686.489885928766
 24
3243.67782083934
 34
0.0
 50
90.0
100
AcDbRotatedDimension
1001
ACAD
1000
DSTYLE
1002
{
1070
    40
1040
0.85
1070
    41
1040
2.0
1070
    42
1040
1.0
1070
    43
1040
6.0
1070
    44
1040
1.3
1070
    47
1040
0.3
1070
    73
1070
     0
1070
    74
1070
     0
1070
    77
1070
     1
1070
    78
1070
     9
1070
   140
1040
3.0
1070
   141
1040
0.0
1070
   146
1040
0.5
1070
   147
1040
1.0
1070
   172
1070
     1
1070
   176
1070
     4
1070
   177
1070
     4
1070
   178
1070
     7
1070
   284
1070
     9
1070
   340
1005
2E
1070
   341
1005
2F
1070
     5
1000
OPEN30
1002
}
  0
DIMENSION
  5
86
330
2
100
AcDbEntity
  8
0
 62
     3
370
    -3
100
AcDbDimension
  2
*D18
 10
4697.527505771614
 20
3281.677820839341
 30
0.0
 11
4695.402505771613
 21
3276.577820839341
 31
0.0
 70
    33
 71
     5
 42
-1.0
  3
STANDARD
100
AcDbAlignedDimension
 13
4676.489885928766
 23
3283.67782083934
 33
0.0
 14
4676.489885928766
 24
3281.677820839341
 34
0.0
1001
ACAD
1000
DSTYLE
1002
{
1070
    40
1040
0.85
1070
    41
1040
2.0
1070
    42
1040
1.0
1070
    43
1040
6.0
1070
    44
1040
1.3
1070
    47
1040
0.3
1070
    73
1070
     0
1070
    74
1070
     0
1070
    77
1070
     1
1070
    78
1070
     9
1070
   140
1040
3.0
1070
   141
1040
0.0
1070
   146
1040
0.5
1070
   147
1040
1.0
1070
   172
1070
     1
1070
   176
1070
     4
1070
   177
1070
     4
1070
   178
1070
     7
1070
   284
1070
     9
1070
   340
1005
2E
1070
   341
1005
2F
1070
     5
1000
OPEN30
1002
}
  0
DIMENSION
  5
95
330
2
100
AcDbEntity
  8
0
 62
     3
370
    -3
100
AcDbDimension
  2
*D19
 10
4697.527505771614
 20
3243.67782083934
 30
0.0
 11
4695.402505771613
 21
3253.677820839341
 31
0.0
 70
    32
 71
     5
 42
-1.0
  3
STANDARD
100
AcDbAlignedDimension
 13
4686.489885928766
 23
3263.67782083934
 33
0.0
 14
4686.489885928766
 24
3243.67782083934
 34
0.0
 50
90.0
100
AcDbRotatedDimension
1001
ACAD
1000
DSTYLE
1002
{
1070
    40
1040
0.85
1070
    41
1040
2.0
1070
    42
1040
1.0
1070
    43
1040
6.0
1070
    44
1040
1.3
1070
    47
1040
0.3
1070
    73
1070
     0
1070
    74
1070
     0
1070
    77
1070
     1
1070
    78
1070
     9
1070
   140
1040
3.0
1070
   141
1040
0.0
1070
   146
1040
0.5
1070
   147
1040
1.0
1070
   172
1070
     1
1070
   176
1070
     4
1070
   177
1070
     4
1070
   178
1070
     7
1070
   284
1070
     9
1070
   340
1005
2E
1070
   341
1005
2F
1070
     5
1000
OPEN30
1002
}
  0
LINE
  5
A2
330
2
100
AcDbEntity
  8
0
  6
CENTER
 62
     1
 48
0.5
370
    -3
100
AcDbLine
 10
4688.419404562416
 20
3263.67782083934
 30
0.0
 11
4674.582497275352
 21
3263.67782083934
 31
0.0
  0
LINE
  5
A3
330
2
100
AcDbEntity
  8
0
  6
CENTER
 62
     1
 48
0.5
370
    -3
100
AcDbLine
 10
4594.560367295116
 20
3263.67782083934
 30
0.0
 11
4608.39727458218
 21
3263.67782083934
 31
0.0
  0
LWPOLYLINE
  5
A4
330
2
100
AcDbEntity
  8
0
 62
     3
370
    -3
100
AcDbPolyline
 90
       54
 70
     1
 43
0.0
 10
4676.489885928766
 20
3281.677820839341
 10
4641.489885928765
 20
3281.677820839341
 10
4606.489885928765
 20
3281.677820839341
 42
0.4142135623730951
 10
4598.489885928766
 20
3273.677820839341
 10
4598.489885928766
 20
3273.17782083934
 42
0.4142135623730951
 10
4600.489885928765
 20
3271.17782083934
 10
4608.489885928766
 20
3271.17782083934
 42
-0.4142135623730951
 10
4611.489885928766
 20
3268.177820839341
 10
4611.489885928766
 20
3243.67782083934
 10
4607.139885928765
 20
3243.67782083934
 10
4607.139885928765
 20
3246.17782083934
 10
4609.139885928765
 20
3246.17782083934
 10
4609.139885928765
 20
3251.67782083934
 42
0.4854368932038828
 10
4598.839885928765
 20
3251.67782083934
 10
4598.839885928765
 20
3246.17782083934
 10
4600.839885928765
 20
3246.17782083934
 10
4600.839885928765
 20
3243.67782083934
 10
4596.489885928765
 20
3243.67782083934
 10
4596.489885928765
 20
3260.527820839341
 10
4598.989885928766
 20
3260.527820839341
 10
4598.989885928766
 20
3258.52782083934
 10
4604.489885928766
 20
3258.52782083934
 42
0.4854368932038831
 10
4604.489885928766
 20
3268.82782083934
 10
4598.989885928766
 20
3268.82782083934
 10
4598.989885928766
 20
3266.827820839341
 10
4596.489885928765
 20
3266.827820839341
 10
4596.489885928765
 20
3273.677820839341
 42
-0.4142135623730951
 10
4606.489885928765
 20
3283.67782083934
 10
4641.489885928765
 20
3283.67782083934
 10
4676.489885928766
 20
3283.67782083934
 42
-0.4142135623730951
 10
4686.489885928766
 20
3273.677820839341
 10
4686.489885928766
 20
3266.827820839341
 10
4683.989885928766
 20
3266.827820839341
 10
4683.989885928766
 20
3268.82782083934
 10
4678.489885928765
 20
3268.82782083934
 42
0.485436893203883
 10
4678.489885928765
 20
3258.52782083934
 10
4683.989885928766
 20
3258.52782083934
 10
4683.989885928766
 20
3260.527820839341
 10
4686.489885928766
 20
3260.527820839341
 10
4686.489885928766
 20
3243.67782083934
 10
4682.139885928765
 20
3243.67782083934
 10
4682.139885928765
 20
3246.17782083934
 10
4684.139885928765
 20
3246.17782083934
 10
4684.139885928765
 20
3251.67782083934
 42
0.485436893203883
 10
4673.839885928765
 20
3251.67782083934
 10
4673.839885928765
 20
3246.17782083934
 10
4675.839885928765
 20
3246.17782083934
 10
4675.839885928765
 20
3243.67782083934
 10
4671.489885928766
 20
3243.67782083934
 10
4671.489885928766
 20
3268.177820839341
 42
-0.4142135623730951
 10
4674.489885928766
 20
3271.17782083934
 10
4682.489885928766
 20
3271.17782083934
 42
0.4142135623730951
 10
4684.489885928766
 20
3273.17782083934
 10
4684.489885928766
 20
3273.677820839341
 42
0.4142135623730951
  0
ENDSEC
  0
SECTION
  2
OBJECTS
  0
DICTIONARY
  5
9
330
0
100
AcDbDictionary
281
     1
  3
ACAD_GROUP
350
2A
  3
ACAD_LAYOUT
350
D
  3
ACAD_MLINESTYLE
350
2B
  3
ACAD_PLOTSETTINGS
350
2C
  3
ACAD_PLOTSTYLENAME
350
8
  3
AcDbVariableDictionary
350
E0
  0
DICTIONARY
  5
19
330
18
100
AcDbDictionary
280
     1
281
     1
  3
AMLAYER_GROUPCOLORS
360
1A
  0
DICTIONARY
  5
3
330
2
100
AcDbDictionary
280
     1
281
     1
  3
ACAD_LAYOUTSELFREF
360
10F
  0
DICTIONARY
  5
11
330
10
100
AcDbDictionary
280
     1
281
     1
  3
ACAD_LAYOUTSELFREF
360
114
  0
DICTIONARY
  5
2A
102
{ACAD_REACTORS
330
9
102
}
330
9
100
AcDbDictionary
281
     1
  0
DICTIONARY
  5
D
102
{ACAD_REACTORS
330
9
102
}
330
9
100
AcDbDictionary
281
     1
  3
Model
350
C
  3
배치1
350
15
  0
DICTIONARY
  5
2B
102
{ACAD_REACTORS
330
9
102
}
330
9
100
AcDbDictionary
281
     1
  3
STANDARD
350
36
  0
DICTIONARY
  5
2C
102
{ACAD_REACTORS
330
9
102
}
330
9
100
AcDbDictionary
281
     1
  0
ACDBDICTIONARYWDFLT
  5
8
102
{ACAD_REACTORS
330
9
102
}
330
9
100
AcDbDictionary
281
     1
  3
Normal
350
7
100
AcDbDictionaryWithDefault
340
7
  0
DICTIONARY
  5
E0
102
{ACAD_REACTORS
330
9
102
}
330
9
100
AcDbDictionary
281
     1
  3
DIMASSOC
350
E2
  3
HIDETEXT
350
E1
  0
DICTIONARY
  5
1A
102
{ACAD_REACTORS
330
19
102
}
330
19
100
AcDbDictionary
280
     1
281
     1
  0
XRECORD
  5
10F
102
{ACAD_REACTORS
330
3
102
}
330
3
100
AcDbXrecord
280
     1
340
2
  0
XRECORD
  5
114
102
{ACAD_REACTORS
330
11
102
}
330
11
100
AcDbXrecord
280
     1
340
10
  0
LAYOUT
  5
C
102
{ACAD_XDICTIONARY
360
E
102
}
102
{ACAD_REACTORS
330
D
102
}
330
D
100
AcDbPlotSettings
  1

  2
Default Windows System Printer.pc3
  4
A4
  6

 40
5.027083396911621
 41
6.551072120666503
 42
5.027084350585937
 43
5.027069091796875
 44
209.9733276367187
 45
296.9683227539062
 46
1.439999999999999
 47
2.759999999999999
 48
2211.648653361968
 49
1218.565733504862
140
2408.696388143424
141
1498.427610016124
142
1.0
143
1.0
 70
 11956
 72
     1
 73
     0
 74
     4
  7
대영금속.ctb
 75
    16
147
1.0
148
-2211.648653361968
149
-1218.565733504862
100
AcDbLayout
  1
Model
 70
     1
 71
     0
 10
0.0
 20
0.0
 11
12.0
 21
9.0
 12
0.0
 22
0.0
 32
0.0
 14
0.0
 24
0.0
 34
0.0
 15
0.0
 25
0.0
 35
0.0
146
0.0
 13
0.0
 23
0.0
 33
0.0
 16
1.0
 26
0.0
 36
0.0
 17
0.0
 27
1.0
 37
0.0
 76
     0
330
2
  0
LAYOUT
  5
15
102
{ACAD_XDICTIONARY
360
16
102
}
102
{ACAD_REACTORS
330
D
102
}
330
D
100
AcDbPlotSettings
  1

  2
C:\Documents and Settings\임준우\Application Data\Autodesk\AutoCAD Mechanical 2004 DX\R16.0\kor\plotters\Default Windows System Printer.pc3
  4

  6

 40
0.0
 41
0.0
 42
0.0
 43
0.0
 44
0.0
 45
0.0
 46
0.0
 47
0.0
 48
0.0
 49
0.0
140
0.0
141
0.0
142
1.0
143
1.0
 70
   688
 72
     0
 73
     0
 74
     5
  7
대영금속.ctb
 75
    16
147
1.0
148
0.0
149
0.0
100
AcDbLayout
  1
배치1
 70
     1
 71
     1
 10
0.0
 20
0.0
 11
12.0
 21
9.0
 12
0.0
 22
0.0
 32
0.0
 14
1.000000000000000E+20
 24
1.000000000000000E+20
 34
1.000000000000000E+20
 15
-1.000000000000000E+20
 25
-1.000000000000000E+20
 35
-1.000000000000000E+20
146
0.0
 13
0.0
 23
0.0
 33
0.0
 16
1.0
 26
0.0
 36
0.0
 17
0.0
 27
1.0
 37
0.0
 76
     0
330
10
  0
MLINESTYLE
  5
36
102
{ACAD_REACTORS
330
2B
102
}
330
2B
100
AcDbMlineStyle
  2
STANDARD
 70
     0
  3

 62
     0
 51
90.0
 52
90.0
 71
     2
 49
0.5
 62
   256
  6
BYLAYER
 49
-0.5
 62
   256
  6
BYLAYER
  0
ACDBPLACEHOLDER
  5
7
102
{ACAD_REACTORS
330
8
102
}
330
8
  0
DICTIONARYVAR
  5
E2
102
{ACAD_REACTORS
330
E0
102
}
330
E0
100
DictionaryVariables
280
     0
  1
1
  0
DICTIONARYVAR
  5
E1
102
{ACAD_REACTORS
330
E0
102
}
330
E0
100
DictionaryVariables
280
     0
  1
1
  0
DICTIONARY
  5
E
330
C
100
AcDbDictionary
280
     1
281
     1
  3
ACAD_XREC_ROUNDTRIP
360
F
  0
DICTIONARY
  5
16
330
15
100
AcDbDictionary
280
     1
281
     1
  3
ACAD_XREC_ROUNDTRIP
360
17
  0
XRECORD
  5
F
102
{ACAD_REACTORS
330
E
102
}
330
E
100
AcDbXrecord
280
     1
102
SHADEPLOT
 70
     0
102
SHADEPLOTRESLEVEL
 70
     2
102
SHADEPLOTCUSTOMDPI
 70
   300
  0
XRECORD
  5
17
102
{ACAD_REACTORS
330
16
102
}
330
16
100
AcDbXrecord
280
     1
102
SHADEPLOT
 70
     0
102
SHADEPLOTRESLEVEL
 70
     2
102
SHADEPLOTCUSTOMDPI
 70
   300
  0
ENDSEC
  0
EOF
